<?xml version="1.0" standalone="no"?>
<!DOCTYPE svg PUBLIC "-//W3C//DTD SVG 1.1//EN" "http://www.w3.org/Graphics/SVG/1.1/DTD/svg11.dtd" >
<svg xmlns="http://www.w3.org/2000/svg">
<metadata>Generated by IcoMoon</metadata>
<defs>
<font id="phpgenerator" horiz-adv-x="1024">
<font-face units-per-em="1024" ascent="877.7142857142858" descent="-146.28571428571428" />
<missing-glyph horiz-adv-x="1024" />
<glyph unicode="&#x20;" horiz-adv-x="256" d="" />
<glyph unicode="&#xe600;" glyph-name="folder-o" horiz-adv-x="951" d="M877.785 77.715v402.286q0 22.857-16 38.857t-38.857 16h-402.286q-22.857 0-38.857 16t-16 38.857v36.571q0 22.857-16 38.857t-38.857 16h-182.857q-22.857 0-38.857-16t-16-38.857v-548.571q0-22.857 16-38.857t38.857-16h694.857q22.857 0 38.857 16t16 38.857zM950.928 480v-402.286q0-52.571-37.714-90.286t-90.286-37.714h-694.857q-52.571 0-90.286 37.714t-37.714 90.286v548.571q0 52.571 37.714 90.286t90.286 37.714h182.857q52.571 0 90.286-37.714t37.714-90.286v-18.286h384q52.571 0 90.286-37.714t37.714-90.286z" />
<glyph unicode="&#xe601;" glyph-name="folder" horiz-adv-x="951" d="M950.928 480v-402.286q0-52.571-37.714-90.286t-90.286-37.714h-694.857q-52.571 0-90.286 37.714t-37.714 90.286v548.571q0 52.571 37.714 90.286t90.286 37.714h182.857q52.571 0 90.286-37.714t37.714-90.286v-18.286h384q52.571 0 90.286-37.714t37.714-90.286z" />
<glyph unicode="&#xe602;" glyph-name="play" d="M512 896c-282.752 0-512-229.248-512-512s229.248-512 512-512 512 229.248 512 512-229.248 512-512 512zM512-32c-229.76 0-416 186.24-416 416s186.24 416 416 416 416-186.24 416-416-186.24-416-416-416zM384 608l384-224-384-224z" />
<glyph unicode="&#xe603;" glyph-name="disable" d="M512 782.222c-251.362 0-455.111-203.749-455.111-455.111s203.749-455.111 455.111-455.111 455.111 203.749 455.111 455.111-203.749 455.111-455.111 455.111zM170.667 327.111c0 73.639 23.666 141.694 63.472 197.527l475.388-475.388c-55.833-39.806-123.888-63.472-197.527-63.472-188.222 0-341.333 153.111-341.333 341.333zM789.861 129.584l-475.388 475.388c55.833 39.806 123.888 63.472 197.527 63.472 188.222 0 341.333-153.111 341.333-341.333 0-73.639-23.666-141.694-63.472-197.527z" />
<glyph unicode="&#xe604;" glyph-name="question" horiz-adv-x="878" d="M512 109.714v109.714q0 8-5.143 13.143t-13.143 5.143h-109.714q-8 0-13.143-5.143t-5.143-13.143v-109.714q0-8 5.143-13.143t13.143-5.143h109.714q8 0 13.143 5.143t5.143 13.143zM658.286 493.714q0 50.286-31.714 93.143t-79.143 66.286-97.143 23.429q-138.857 0-212-121.714-8.571-13.714 4.571-24l75.429-57.143q4-3.429 10.857-3.429 9.143 0 14.286 6.857 30.286 38.857 49.143 52.571 19.429 13.714 49.143 13.714 27.429 0 48.857-14.857t21.429-33.714q0-21.714-11.429-34.857t-38.857-25.714q-36-16-66-49.429t-30-71.714v-20.571q0-8 5.143-13.143t13.143-5.143h109.714q8 0 13.143 5.143t5.143 13.143q0 10.857 12.286 28.286t31.143 28.286q18.286 10.286 28 16.286t26.286 20 25.429 27.429 16 34.571 7.143 46.286zM877.714 384q0-119.429-58.857-220.286t-159.714-159.714-220.286-58.857-220.286 58.857-159.714 159.714-58.857 220.286 58.857 220.286 159.714 159.714 220.286 58.857 220.286-58.857 159.714-159.714 58.857-220.286z" />
<glyph unicode="&#xe605;" glyph-name="settings" d="M933.79 285.75c-53.726 93.054-21.416 212.304 72.152 266.488l-100.626 174.292c-28.75-16.854-62.176-26.518-97.846-26.518-107.536 0-194.708 87.746-194.708 195.99h-201.258c0.266-33.41-8.074-67.282-25.958-98.252-53.724-93.056-173.156-124.702-266.862-70.758l-100.624-174.292c28.97-16.472 54.050-40.588 71.886-71.478 53.638-92.908 21.512-211.92-71.708-266.224l100.626-174.292c28.65 16.696 61.916 26.254 97.4 26.254 107.196 0 194.144-87.192 194.7-194.958h201.254c-0.086 33.074 8.272 66.57 25.966 97.218 53.636 92.906 172.776 124.594 266.414 71.012l100.626 174.29c-28.78 16.466-53.692 40.498-71.434 71.228zM512 176.668c-114.508 0-207.336 92.824-207.336 207.334 0 114.508 92.826 207.334 207.336 207.334 114.508 0 207.332-92.826 207.332-207.334-0.002-114.51-92.824-207.334-207.332-207.334z" />
<glyph unicode="&#xe606;" glyph-name="view" d="M972.8 652.8h-921.6c-28.314 0-51.2-22.886-51.2-51.2v-614.4c0-28.262 22.886-51.2 51.2-51.2h921.6c28.314 0 51.2 22.938 51.2 51.2v614.4c0 28.262-22.886 51.2-51.2 51.2zM665.6 448h204.8v-51.2h-204.8v51.2zM563.2 48.486c-6.605 5.222-15.002 10.291-27.085 15.514-60.416 26.010-151.603 64.512-151.603 111.411 0 28.211 18.381 18.995 26.522 70.605 3.379 21.402 19.712 0.358 22.784 49.203 0 19.456-8.909 24.32-8.909 24.32s4.506 28.774 6.298 50.995c1.843 23.194-11.315 92.16-65.382 107.366-9.523 9.626-15.923 5.683 13.21 21.094-63.693 3.021-78.541-30.31-112.435-54.835-28.877-21.504-36.71-55.552-35.277-73.677 1.894-22.17 6.4-50.995 6.4-50.995s-8.96-4.813-8.96-24.269c3.123-48.845 19.456-27.802 22.784-49.203 8.090-51.61 26.573-42.394 26.573-70.605 0-46.899-91.187-85.402-151.603-111.411-10.394-4.506-17.869-8.858-24.115-13.312v499.712h460.8v-501.914zM921.6 243.2h-256v51.2h256v-51.2z" />
<glyph unicode="&#xe607;" glyph-name="edit" d="M704.079 601.066c-77.536 56.454-132.72 55.226-153.68 51.827-5.895-0.943-10.849-4.339-14.328-9.13l-281.774-388.786c-11.34-15.638-17.889-34.224-18.913-53.506l-12.117-230.234c-0.859-16.581 15.638-28.575 31.113-22.639l215.168 82.285c18.135 6.96 33.896 19.037 45.276 34.756l281.651 388.664c3.644 5.035 5.117 11.176 4.094 17.318-3.439 21.533-19.936 73.77-96.489 129.445zM470.202 76.899l-83.636-32.3c-3.275-1.268-6.919-0.245-9.047 2.538-10.767 13.714-23.58 27.304-44.008 42.166-20.428 14.819-37.294 22.844-53.629 28.901-3.275 1.228-5.363 4.339-5.158 7.859l4.994 89.489 22.475 30.908c0 0 50.313 6.919 115.977-40.856 65.582-47.733 74.548-97.76 74.548-97.76l-22.515-30.948z" />
<glyph unicode="&#xe608;" glyph-name="page" d="M892.443 617.24c-20.824 28.399-49.851 61.594-81.729 93.474s-65.074 60.904-93.474 81.729c-48.351 35.456-71.805 39.557-85.241 39.557h-465c-41.355 0-75-33.645-75-75v-810c0-41.355 33.645-75 75-75h690c41.355 0 75 33.645 75 75v585c0 13.436-4.099 36.891-39.557 85.241zM768.288 668.287c28.781-28.781 51.375-54.748 68.044-76.288h-144.332v144.324c21.546-16.669 47.511-39.261 76.288-68.036zM872-53c0-8.13-6.87-15-15-15h-690c-8.13 0-15 6.87-15 15v810c0 8.13 6.87 15 15 15 0 0 464.959 0.002 465 0v-210c0-16.569 13.431-30 30-30h210v-585z" />
<glyph unicode="&#xe609;" glyph-name="rss" d="M853.34 896h-682.654c-93.876 0-170.686-76.812-170.686-170.688v-682.628c0-93.934 76.812-170.684 170.688-170.684h682.652c93.876 0 170.66 76.748 170.66 170.684v682.628c0 93.876-76.784 170.688-170.66 170.688zM278.944 64.752c-47.97 0-86.944 38.692-86.944 86.628 0 47.684 38.972 86.812 86.944 86.812 48.158 0 87.060-39.128 87.060-86.812-0.002-47.936-38.904-86.628-87.060-86.628zM497.468 64.004c0 81.81-31.808 158.818-89.46 216.444-57.714 57.75-134.376 89.626-215.904 89.626v125.186c237.652 0 431.126-193.442 431.126-431.254l-125.762-0.002zM719.628 64.004c0 291.062-236.658 527.94-527.376 527.94v125.248c360.002 0 652.946-293.124 652.946-653.192l-125.57 0.004z" />
<glyph unicode="&#xe60a;" glyph-name="time" d="M512 856.748q99.84 0 191.147-38.827t157.44-104.96 104.96-157.44 38.827-191.147-38.827-191.147-104.96-157.44-157.44-104.96-191.147-38.827-191.147 38.827-157.44 104.96-104.96 157.44-38.827 191.147 38.827 191.147 104.96 157.44 157.44 104.96 191.147 38.827zM512 728.748q-98.987 0-183.040-48.64t-132.693-132.693-48.64-183.040 48.64-183.040 132.693-132.693 183.040-48.64 183.040 48.64 132.693 132.693 48.64 183.040-48.64 183.040-132.693 132.693-183.040 48.64zM448 620.375h42.667q8.533 0 14.933-6.4t6.4-14.933v-234.667h149.333q8.533 0 14.933-6.4t6.4-14.933v-42.667q0-8.533-6.4-14.933t-14.933-6.4h-213.333q-8.533 0-14.933 6.4t-6.4 14.933v298.667q0 8.533 6.4 14.933t14.933 6.4z" />
<glyph unicode="&#xe60b;" glyph-name="sort" d="M343.998 124.842h126.002q17.64 0 21-9.24t-8.4-21l-193.203-210.002q-11.76-12.6-29.401-12.6t-29.401 12.6l-193.203 210.002q-11.76 11.76-8.4 21t21 9.24h126.002v756.010h168.003v-756.010zM793.405 867.412l193.203-209.163q11.76-11.76 8.4-20.581t-21-8.82h-126.002v-756.010h-168.003v756.010h-126.002q-17.64 0-21 8.82t8.4 20.581l193.203 209.163q11.76 12.6 29.401 12.6t29.401-12.6z" />
<glyph unicode="&#xe60c;" glyph-name="export" d="M362.668 831.999l447.253-1.493q14.933-0.747 26.133-11.573t11.2-26.507l0.747-445.76q0-15.68-7.84-18.667t-18.293 7.467l-155.307 155.307-115.733-114.987-158.293 158.293 115.733 114.987-156.8 156.8q-10.453 10.453-7.467 18.293t18.667 7.84zM492.588 318.292l-56.747-57.493q-11.2-10.453-26.88-10.453t-26.133 10.453l-106.027 106.027q-10.453 10.453-10.453 26.133t10.453 26.133l57.493 57.493zM138.668 159.999h746.667q15.68 0 26.507-10.827t10.827-26.507v-186.667h-821.333v186.667q0 15.68 10.827 26.507t26.507 10.827zM773.333 85.332v-37.333h74.667v37.333h-74.667z" />
<glyph unicode="&#xe60e;" glyph-name="filter" horiz-adv-x="819" d="M7.743 702.581l341.207-498.090v-332.491l124.545 92.537v245.806l337.763 492.237z" />
<glyph unicode="&#xe610;" glyph-name="permissions" horiz-adv-x="674" d="M532.78 391.070h4.466c40.203 0 72.8-32.548 72.8-72.862v-309.346c0-40.241-32.524-72.862-72.8-72.862h-400.496c-40.203 0-72.8 32.548-72.8 72.862v309.346c0 40.241 32.524 72.862 72.8 72.862h4.466v168.235c0 108.157 87.639 195.825 195.778 195.825 108.119 0 195.778-87.698 195.778-195.825v-168.235zM459.969 391.070v168.235c0 67.924-55.070 123.015-122.967 123.015-67.925 0-122.967-55.068-122.967-123.015v-168.235h245.936zM361.619 168.715c12.565 8.097 20.891 22.218 20.891 38.284 0 25.133-20.375 45.509-45.509 45.509s-45.509-20.375-45.509-45.509c0-16.068 8.329-30.192 20.898-38.288l-20.107-76.193c-3.126-9.917 3.22-17.955 14.44-17.955h60.553c11.145 0 17.556 8.076 14.44 17.955l-20.108 76.197z" />
<glyph unicode="&#xe611;" glyph-name="delete-selected" horiz-adv-x="819" d="M807.873 171.091l-73.6 74.162 73.6 74.175c6.792 7.17 10.202 15.857 10.202 26.030 0 10.202-3.395 18.692-10.202 25.483-7.549 7.157-16.124 10.846-25.764 11.043-9.64 0.182-18.032-3.311-25.203-10.468l-75.297-74.189-73.6 73.614c-7.549 6.792-16.054 10.552-25.468 11.324-9.443 0.743-18.327-3.030-26.605-11.324-6.427-7.563-10.005-16.054-10.776-25.483-0.743-9.443 2.47-17.751 9.64-24.908l75.297-75.297-75.297-75.297c-7.17-7.549-10.468-16.333-9.908-26.324 0.562-10.005 4.265-18.411 11.043-25.203 7.549-7.549 16.419-10.932 26.605-10.187s18.678 4.14 25.468 10.187l73.6 74.175 73.6-72.478c7.563-7.914 16.53-11.886 26.9-11.886 10.384 0 18.986 3.395 25.764 10.187 7.549 7.549 11.127 16.53 10.762 26.9-0.392 10.37-3.971 18.973-10.762 25.764zM208.506 592.918h304.518v-12.91h75.551v50.671c0 10.089-3.929 19.589-11.086 26.718-7.129 7.129-16.614 11.057-26.676 11.057h-380.067c-20.852 0-37.789-16.951-37.789-37.746v-542.97c0-20.811 16.938-37.746 37.762-37.746h72.954v75.537h-35.194l0.027 467.391zM75.536 702.412h304.518v-12.924h75.551v50.686c0.027 10.089-3.916 19.589-11.057 26.703-7.157 7.157-16.614 11.071-26.703 11.071h-380.083c-20.824 0-37.762-16.938-37.762-37.762v-542.956c0-20.811 16.938-37.762 37.733-37.762h72.968v75.551h-35.179v467.391zM649.251 108.21v-96.684h-304.532l0.027 467.434h304.503v-97.624l32.541-32.57 43.009 42.378v125.576c0 10.089-3.943 19.575-11.071 26.689-7.17 7.143-16.629 11.071-26.718 11.071h-380.054c-20.824 0-37.762-16.951-37.762-37.762v-542.956c0-20.824 16.938-37.762 37.762-37.762h380.067c20.824 0 37.746 16.938 37.789 37.762v125.043l-42.911 42.251-32.654-32.849z" />
<glyph unicode="&#xe612;" glyph-name="keys-pk-fk" horiz-adv-x="819" d="M793.689 396.471l-69.222 73.916c-0.672 2.826-1.5 5.643-2.503 8.44l-72.296 201.252c-14.746 40.985-60.046 62.337-101.041 47.612l-162.181-58.28c-40.985-14.726-62.329-60.046-47.62-101.032l2.752-7.649-58.011-20.847 9.369-26.056-9.139-3.277-7.603-16.254-0.746 0.341-15.444 7.28-53.447-19.2-7.289-15.444-0.341-0.746-0.736 0.341-15.481 7.353-51.414-18.472-7.603-16.254-0.736 0.341-15.398 7.272-61.399-21.914-54.128-109.747 111.533-50.189 238.776 85.79c3.884-11.735 10.225-22.853 19.227-32.462l6.167-6.581-50.171-46.995 21.142-22.568-7.924-7.428-0.626-19.126 0.037-0.847-0.921 0.046-19.062 0.562-46.287-43.35-0.617-18.987-0.037-0.911-20.037 0.655-44.473-41.648-0.562-19.062-0.037-0.911-19.898 0.646-13.906-13.024-25.66-23.903-13.695-12.711-0.874-18.592-3.599-70.216-2.347-47.584 47.649-0.782 88.863-1.269 263.81 247.069 6.167-6.581c33.281-35.535 89.158-37.303 124.621-4.077l140.331 131.432c35.527 33.29 37.349 89.094 4.069 124.63zM758.154 305.435l-140.331-131.432c-16.99-15.914-43.664-15.048-59.586 1.951l-37.625 40.166-283.812-265.827-70.226 1.058 3.534 70.143 25.651 23.911 46.968-1.537 1.473 47.023 16.595 15.536 46.968-1.666 1.601 47.023 18.407 17.239 46.968-1.537 1.473 47.023 27.538 25.799-21.142 22.568 50.18 47.004-37.625 40.166c-4.602 4.916-7.63 10.657-9.434 16.687-1.058 3.507-1.62 7.114-1.748 10.741-0.009 0.24-0.046 0.478-0.046 0.718-0.037 1.546 0.064 3.083 0.194 4.62 0.084 0.856 0.194 1.713 0.331 2.558 0.194 1.307 0.386 2.615 0.709 3.893 0.516 2.044 1.168 4.049 1.997 6.010 0.313 0.755 0.727 1.473 1.087 2.217 0.764 1.537 1.611 3.056 2.568 4.51 0.423 0.653 0.856 1.298 1.325 1.924 1.482 1.997 3.093 3.939 4.971 5.698l140.331 131.432c17 15.914 43.664 15.048 59.586-1.951l163.066-174.092c15.923-16.99 15.048-43.664-1.942-59.577zM566.86 430.653c-8.57 9.139-22.918 9.608-32.066 1.049-9.139-8.56-9.619-22.927-1.049-32.066l83.028-88.642c8.57-9.139 22.918-9.619 32.066-1.049 9.149 8.56 9.608 22.918 1.041 32.057l-83.019 88.651z" />
<glyph unicode="&#xe613;" glyph-name="keys-fk" horiz-adv-x="819" d="M31.9 85.6l297.95 297.95c-9.039 24.992-14.75 51.542-14.75 79.65 0 130.343 105.657 236 236 236s236-105.634 236-236-105.657-236-236-236h-188.8v-141.6h-141.6v-141.6h-188.8v141.6zM645.5 463.2c0 52.085-42.315 94.4-94.4 94.4-52.18 0-94.4-42.315-94.4-94.4 0-52.18 42.22-94.4 94.4-94.4 52.085 0 94.4 42.22 94.4 94.4z" />
<glyph unicode="&#xe614;" glyph-name="add-condition" horiz-adv-x="819" d="M619.383 555.127v200.073h-283.959v-200.073h-335.192v-619.127h619.151v335.192h199.385v283.935h-199.385zM747.449 344.47h-197.788v-185.737h-143.54v185.737h-197.755v143.532h197.755v197.763h143.54v-197.771h197.788v-143.524z" />
<glyph unicode="&#xe615;" glyph-name="keys-pk" horiz-adv-x="819" d="M739.9 699.2h-377.6c-26.078 0-47.2-21.122-47.2-47.2v-283.2l-283.2-283.2v-141.6h188.8v141.6h141.6v141.6h377.6c26.078 0 47.2 21.122 47.2 47.2v377.6c0 26.078-21.122 47.2-47.2 47.2zM645.5 368.8h-188.8v188.8h188.8v-188.8z" />
<glyph unicode="&#xe616;" glyph-name="operator-ends-with" horiz-adv-x="819" d="M40.951 813.849c-22.616 0-40.95-16.381-40.95-40.95v-900.899h81.9v286.649c0 0 92.137-44.787 184.275-44.787s184.274 44.787 184.274 44.787c0 0 92.137 49.908 184.275 49.908s184.275-49.908 184.275-49.908v40.952c0 0-55.153 30.207-122.85 43.508v120.291l-163.8 40.949v-171.479c-8.412-2.527-16.86-5.026-24.314-7.676-19.35-6.68-30.889-12.763-40.95-17.917-10.077-4.606-16.636-7.676-16.636-7.676s-5.279-2.176-15.356-6.398c-13.787-5.624-35.107-13.604-66.544-21.754v191.953l-163.8-40.95v-161.239c-16.494 3.021-32.994 6.089-47.348 10.238-6.64 2.080-11.93 4.362-17.915 6.397-9.112 2.973-14.456 4.916-21.754 7.678-11.948 4.398-12.952 5.095-19.195 7.678-10.077 4.222-16.636 6.398-16.636 6.398v163.799l122.85-40.95v204.75l-122.85 40.949v204.75c0 24.571-18.334 40.95-40.95 40.95zM204.751 527.2l163.799 40.949v127.969c16.406 5.671 23.384 8.426 34.552 12.796-35.485-12.375-86.238-25.594-136.926-25.594-51.828 0-103.002 14.295-138.206 26.873 19.529-7.832 43.448-16.986 76.781-23.035v-159.96zM368.55 568.15v-204.75l163.8 40.949v204.75l-163.8-40.952zM532.35 609.1l163.8-40.952v199.631c-19.744 3.554-40.621 5.119-61.425 5.119-36.146 0-71.791-6.93-102.375-15.354v-148.444zM696.149 568.15v-204.75h122.85v163.799l-122.85 40.949z" />
<glyph unicode="&#xe617;" glyph-name="operator-begins-with" horiz-adv-x="1084" d="M86.050 780.416c28.936 7.84 58.776-9.359 66.596-38.678l210.851-794.649c7.757-29.29-9.306-59.412-38.378-67.229-28.864-7.86-58.767 9.524-66.586 38.803l-210.778 794.619c-7.81 29.405 9.359 59.327 38.295 67.137zM201.826 717.52c14.098 24.382 145.567 226.969 371.296 84.326 226.168-142.59 373.332-244.496 470.901-73.925 0 0-24.372-138.079-66.243-211.266-41.808-73.201-172.902-173.442-335.205-130.747-150.15 39.502-260.615-21.397-305.583-157.064 0 0-124.46 450.567-135.166 488.684z" />
<glyph unicode="&#xe618;" glyph-name="add-group" horiz-adv-x="819" d="M786.831 322.228h-71.991c-17.818 0-32.268-14.442-32.268-32.268v-216.613h-547.373v545.022h190.808c17.818 0 32.268 14.451 32.268 32.268v72.294c0 17.818-14.459 32.268-32.268 32.268h-293.839c-17.818 0-32.268-14.451-32.268-32.268v-754.655c0-17.834 14.451-32.276 32.268-32.276h754.655c17.826 0 32.268 14.442 32.268 32.268v321.692c0.008 17.834-14.442 32.268-32.26 32.268zM271.734 533.516c-17.818 0-32.268-14.451-32.268-32.268v-79.766c0-17.826 14.459-32.268 32.268-32.268h180.167v-191.98c0-17.818 14.451-32.26 32.268-32.26h88.891c17.818 0 32.268 14.451 32.268 32.26v191.971h175.555c17.818 0 32.268 14.451 32.268 32.268v79.774c0 17.818-14.459 32.268-32.268 32.268h-175.555v189.407c0 17.818-14.459 32.26-32.268 32.26h-88.891c-17.826 0-32.268-14.442-32.268-32.26v-189.407h-180.167z" />
<glyph unicode="&#xe619;" glyph-name="operator-is-like" d="M287.083 347.552c2.98-8.599 11.077-14.367 20.178-14.367h59.711c7.007 0 13.577 3.44 17.572 9.208s4.903 13.128 2.425 19.687l-134.227 356.313c-3.13 8.321-11.098 13.833-19.986 13.833h-73.373c-8.823 0-16.749-5.437-19.922-13.673l-137.72-356.847c-2.521-6.569-1.666-13.972 2.318-19.783 3.984-5.8 10.575-9.272 17.625-9.272h54.157c8.93 0 16.92 5.555 20.028 13.918l28.787 77.411h135.905l26.523-76.428zM150.143 497.461l44.372 133.779 41.659-133.779h-86.031zM424.494 333.207h106.925c34.972 0 100.099 0 141.769 47.94 22.859 26.512 25.53 78.543 17.187 104.756-8.93 25.583-25.957 43.026-54.509 55.471 21.524 11.173 36.713 26.865 45.227 46.808 12.893 30.518 6.366 74.281-15.318 102.011-29.706 37.077-81.182 42.076-127.637 42.076l-113.665-0.053c-11.793 0-21.342-9.571-21.342-21.364v-356.281c0-11.803 9.56-21.364 21.364-21.364zM591.814 432.964c-6.26-13.107-19.366-25.22-72.754-25.22h-13.715v93.060l19.366 0.011c31.736 0 50.258-3.151 63.343-20.231 9.122-12.113 9.582-35.816 3.76-47.619zM583.802 599.739c-9.122-16.172-21.78-24.921-61.014-24.921h-17.443v83.403l19.729 0.011c27.869-0.684 44.041-3.664 54.637-17.71 8.631-11.878 8.172-31.81 4.091-40.783zM1022.312 402.425c-0.331 6.751-3.835 12.946-9.464 16.696-5.597 3.771-12.69 4.657-19.035 2.393-51.294-18.223-86.747-19.088-119.316-2.756-40.174 20.787-60.523 55.834-62.211 106.711-0.662 44.543 5.64 93.893 57.233 122.253 15.125 8.278 32.793 12.476 52.554 12.476 26.288 0 52.341-7.723 69.592-14.185 6.388-2.425 13.523-1.592 19.217 2.126 5.715 3.749 9.282 9.987 9.614 16.792l1.923 37.835c0.502 10.041-6.067 19.088-15.788 21.695-21.428 5.779-55.001 12.658-93.412 12.658-41.371 0-77.603-7.83-107.726-23.318-83.703-43.315-97.226-125.949-99.106-159.372-1.933-30.988-1.314-136.599 86.704-194.355 41.477-26.704 91.233-32.302 125.661-32.302 30.080 0 62.083 4.454 90.133 12.551 9.528 2.756 15.895 11.686 15.414 21.577l-1.987 40.527zM945.146 288.941c-0.716 5.672-3.696 10.853-8.246 14.314-4.582 3.472-10.34 4.946-16.001 4.145-223.228-32.377-410.416-181.227-504.565-269.908l-179.988 210.389c-7.659 8.983-21.15 10.020-30.101 2.371l-69.122-59.102c-4.315-3.696-6.986-8.93-7.424-14.57s1.399-11.259 5.074-15.542l227.181-265.56c11.333-13.224 26.972-21.396 43.165-22.923 1.816-0.235 4.198-0.555 7.883-0.555 11.098 0 32.291 2.905 49.628 22.475 2.168 2.414 219.703 242.306 475.97 280.419 11.483 1.709 19.494 12.305 18.031 23.82l-11.483 90.229z" />
<glyph unicode="&#xe61a;" glyph-name="search" horiz-adv-x="951" d="M658.358 420.545q0 105.714-75.143 180.857t-180.857 75.143-180.857-75.143-75.143-180.857 75.143-180.857 180.857-75.143 180.857 75.143 75.143 180.857zM950.929-54.883q0-29.714-21.714-51.429t-51.429-21.714q-30.857 0-51.429 21.714l-196 195.429q-102.286-70.857-228-70.857-81.714 0-156.286 31.714t-128.571 85.714-85.714 128.571-31.714 156.286 31.714 156.286 85.714 128.571 128.571 85.714 156.286 31.714 156.286-31.714 128.571-85.714 85.714-128.571 31.714-156.286q0-125.714-70.857-228l196-196q21.143-21.143 21.143-51.429z" />
<glyph unicode="&#xe61b;" glyph-name="user" horiz-adv-x="805" d="M804.786 83.971q0-68.571-41.714-108.286t-110.857-39.714h-499.429q-69.143 0-110.857 39.714t-41.714 108.286q0 30.286 2 59.143t8 62.286 15.143 62 24.571 55.714 35.429 46.286 48.857 30.571 63.714 11.429q5.143 0 24-12.286t42.571-27.429 61.714-27.429 76.286-12.286 76.286 12.286 61.714 27.429 42.571 27.429 24 12.286q34.857 0 63.714-11.429t48.857-30.571 35.429-46.286 24.571-55.714 15.143-62 8-62.286 2-59.143zM621.929 594.257q0-90.857-64.286-155.143t-155.143-64.286-155.143 64.286-64.286 155.143 64.286 155.143 155.143 64.286 155.143-64.286 64.286-155.143z" />
<glyph unicode="&#xe61c;" glyph-name="ok" d="M954.857 482.286q0-22.857-16-38.857l-491.429-491.429q-16-16-38.857-16t-38.857 16l-284.571 284.571q-16 16-16 38.857t16 38.857l77.714 77.714q16 16 38.857 16t38.857-16l168-168.571 374.857 375.429q16 16 38.857 16t38.857-16l77.714-77.714q16-16 16-38.857z" />
<glyph unicode="&#xe61d;" glyph-name="remove" horiz-adv-x="805" d="M741.929 75.148q0-22.857-16-38.857l-77.714-77.714q-16-16-38.857-16t-38.857 16l-168 168-168-168q-16-16-38.857-16t-38.857 16l-77.714 77.714q-16 16-16 38.857t16 38.857l168 168-168 168q-16 16-16 38.857t16 38.857l77.714 77.714q16 16 38.857 16t38.857-16l168-168 168 168q16 16 38.857 16t38.857-16l77.714-77.714q16-16 16-38.857t-16-38.857l-168-168 168-168q16-16 16-38.857z" />
<glyph unicode="&#xe61e;" glyph-name="filter-reset" horiz-adv-x="951" d="M585.215 438.83v-36.571q0-7.429-5.429-12.857t-12.857-5.429h-329.143q-7.429 0-12.857 5.429t-5.429 12.857v36.571q0 7.429 5.429 12.857t12.857 5.429h329.143q7.429 0 12.857-5.429t5.429-12.857zM658.358 420.544q0 105.714-75.143 180.857t-180.857 75.143-180.857-75.143-75.143-180.857 75.143-180.857 180.857-75.143 180.857 75.143 75.143 180.857zM950.929-54.884q0-30.286-21.429-51.714t-51.714-21.429q-30.857 0-51.429 21.714l-196 195.429q-102.286-70.857-228-70.857-81.714 0-156.286 31.714t-128.571 85.714-85.714 128.571-31.714 156.286 31.714 156.286 85.714 128.571 128.571 85.714 156.286 31.714 156.286-31.714 128.571-85.714 85.714-128.571 31.714-156.286q0-125.714-70.857-228l196-196q21.143-21.143 21.143-51.429z" />
<glyph unicode="&#xe61f;" glyph-name="download" horiz-adv-x="951" d="M731.5-18.311q0 14.857-10.857 25.714t-25.714 10.857-25.714-10.857-10.857-25.714 10.857-25.714 25.714-10.857 25.714 10.857 10.857 25.714zM877.785-18.311q0 14.857-10.857 25.714t-25.714 10.857-25.714-10.857-10.857-25.714 10.857-25.714 25.714-10.857 25.714 10.857 10.857 25.714zM950.928 109.689v-182.857q0-22.857-16-38.857t-38.857-16h-841.143q-22.857 0-38.857 16t-16 38.857v182.857q0 22.857 16 38.857t38.857 16h265.714l77.143-77.714q33.143-32 77.714-32t77.714 32l77.714 77.714h265.143q22.857 0 38.857-16t16-38.857zM765.214 434.832q9.714-23.429-8-40l-256-256q-10.286-10.857-25.714-10.857t-25.714 10.857l-256 256q-17.714 16.571-8 40 9.714 22.286 33.714 22.286h146.286v256q0 14.857 10.857 25.714t25.714 10.857h146.286q14.857 0 25.714-10.857t10.857-25.714v-256h146.286q24 0 33.714-22.286z" />
<glyph unicode="&#xe620;" glyph-name="page-refresh" d="M936.571 219.429q0-2.857-0.571-4-36.571-153.143-153.143-248.286t-273.143-95.143q-83.429 0-161.429 31.429t-139.143 89.714l-73.714-73.714q-10.857-10.857-25.714-10.857t-25.714 10.857-10.857 25.714v256q0 14.857 10.857 25.714t25.714 10.857h256q14.857 0 25.714-10.857t10.857-25.714-10.857-25.714l-78.286-78.286q40.571-37.714 92-58.286t106.857-20.571q76.571 0 142.857 37.143t106.286 102.286q6.286 9.714 30.286 66.857 4.571 13.143 17.143 13.143h109.714q7.429 0 12.857-5.429t5.429-12.857zM950.856 676.572v-256q0-14.857-10.857-25.714t-25.714-10.857h-256q-14.857 0-25.714 10.857t-10.857 25.714 10.857 25.714l78.857 78.857q-84.571 78.286-199.429 78.286-76.571 0-142.857-37.143t-106.286-102.286q-6.286-9.714-30.286-66.857-4.571-13.143-17.143-13.143h-113.714q-7.429 0-12.857 5.429t-5.429 12.857v4q37.143 153.143 154.286 248.286t274.286 95.143q83.429 0 162.286-31.714t140-89.429l74.286 73.714q10.857 10.857 25.714 10.857t25.714-10.857 10.857-25.714z" />
<glyph unicode="&#xe621;" glyph-name="print-page" horiz-adv-x="951" d="M219.499-54.882h512v146.286h-512v-146.286zM219.499 310.832h512v219.429h-91.429q-22.857 0-38.857 16t-16 38.857v91.429h-365.714v-365.714zM877.784 274.261q0 14.857-10.857 25.714t-25.714 10.857-25.714-10.857-10.857-25.714 10.857-25.714 25.714-10.857 25.714 10.857 10.857 25.714zM950.927 274.261v-237.714q0-7.429-5.429-12.857t-12.857-5.429h-128v-91.429q0-22.857-16-38.857t-38.857-16h-548.571q-22.857 0-38.857 16t-16 38.857v91.429h-128q-7.429 0-12.857 5.429t-5.429 12.857v237.714q0 45.143 32.286 77.429t77.429 32.286h36.571v310.857q0 22.857 16 38.857t38.857 16h384q22.857 0 50.286-11.429t43.429-27.429l86.857-86.857q16-16 27.429-43.429t11.429-50.286v-146.286h36.571q45.143 0 77.429-32.286t32.286-77.429z" />
<glyph unicode="&#xe622;" glyph-name="chevron-left" horiz-adv-x="731" d="M650.642 699.927l-303.429-303.429 303.429-303.429q10.857-10.857 10.857-25.714t-10.857-25.714l-94.857-94.857q-10.857-10.857-25.714-10.857t-25.714 10.857l-424 424q-10.857 10.857-10.857 25.714t10.857 25.714l424 424q10.857 10.857 25.714 10.857t25.714-10.857l94.857-94.857q10.857-10.857 10.857-25.714t-10.857-25.714z" />
<glyph unicode="&#xe623;" glyph-name="chevron-right" horiz-adv-x="731" d="M650.643 370.785l-424-424q-10.857-10.857-25.714-10.857t-25.714 10.857l-94.857 94.857q-10.857 10.857-10.857 25.714t10.857 25.714l303.429 303.429-303.429 303.429q-10.857 10.857-10.857 25.714t10.857 25.714l94.857 94.857q10.857 10.857 25.714 10.857t25.714-10.857l424-424q10.857-10.857 10.857-25.714t-10.857-25.714z" />
<glyph unicode="&#xe624;" glyph-name="arrow-left" d="M932.571 417.716v-73.143q0-30.286-18.571-51.714t-48.286-21.429h-402.286l167.429-168q21.714-20.571 21.714-51.429t-21.714-51.429l-42.857-43.429q-21.143-21.143-51.429-21.143-29.714 0-52 21.143l-372 372.571q-21.143 21.143-21.143 51.429 0 29.714 21.143 52l372 371.429q21.714 21.714 52 21.714 29.714 0 51.429-21.714l42.857-42.286q21.714-21.714 21.714-52t-21.714-52l-167.429-167.429h402.286q29.714 0 48.286-21.429t18.571-51.714z" />
<glyph unicode="&#xe625;" glyph-name="plus" horiz-adv-x="805" d="M804.785 393.115v-109.714q0-22.857-16-38.857t-38.857-16h-237.714v-237.714q0-22.857-16-38.857t-38.857-16h-109.714q-22.857 0-38.857 16t-16 38.857v237.714h-237.714q-22.857 0-38.857 16t-16 38.857v109.714q0 22.857 16 38.857t38.857 16h237.714v237.714q0 22.857 16 38.857t38.857 16h109.714q22.857 0 38.857-16t16-38.857v-237.714h237.714q22.857 0 38.857-16t16-38.857z" />
<glyph unicode="&#xe626;" glyph-name="minus" horiz-adv-x="805" d="M804.785 393.123v-109.714q0-22.857-16-38.857t-38.857-16h-694.857q-22.857 0-38.857 16t-16 38.857v109.714q0 22.857 16 38.857t38.857 16h694.857q22.857 0 38.857-16t16-38.857z" />
<glyph unicode="&#xe627;" glyph-name="datetime-picker" horiz-adv-x="951" d="M73.215-54.884h164.571v164.571h-164.571v-164.571zM274.358-54.884h182.857v164.571h-182.857v-164.571zM73.215 146.259h164.571v182.857h-164.571v-182.857zM274.358 146.259h182.857v182.857h-182.857v-182.857zM73.215 365.687h164.571v164.571h-164.571v-164.571zM493.786-54.884h182.857v164.571h-182.857v-164.571zM274.358 365.687h182.857v164.571h-182.857v-164.571zM713.215-54.884h164.571v164.571h-164.571v-164.571zM493.786 146.259h182.857v182.857h-182.857v-182.857zM292.643 639.973v164.571q0 7.429-5.429 12.857t-12.857 5.429h-36.571q-7.429 0-12.857-5.429t-5.429-12.857v-164.571q0-7.429 5.429-12.857t12.857-5.429h36.571q7.429 0 12.857 5.429t5.429 12.857zM713.215 146.259h164.571v182.857h-164.571v-182.857zM493.786 365.687h182.857v164.571h-182.857v-164.571zM713.215 365.687h164.571v164.571h-164.571v-164.571zM731.501 639.973v164.571q0 7.429-5.429 12.857t-12.857 5.429h-36.571q-7.429 0-12.857-5.429t-5.429-12.857v-164.571q0-7.429 5.429-12.857t12.857-5.429h36.571q7.429 0 12.857 5.429t5.429 12.857zM950.929 676.544v-731.429q0-29.714-21.714-51.429t-51.429-21.714h-804.571q-29.714 0-51.429 21.714t-21.714 51.429v731.429q0 29.714 21.714 51.429t51.429 21.714h73.143v54.857q0 37.714 26.857 64.571t64.571 26.857h36.571q37.714 0 64.571-26.857t26.857-64.571v-54.857h219.429v54.857q0 37.714 26.857 64.571t64.571 26.857h36.571q37.714 0 64.571-26.857t26.857-64.571v-54.857h73.143q29.714 0 51.429-21.714t21.714-51.429z" />
<glyph unicode="&#xe628;" glyph-name="chevron-up" d="M961.714 193.429l-94.857-94.286q-10.857-10.857-25.714-10.857t-25.714 10.857l-303.429 303.429-303.429-303.429q-10.857-10.857-25.714-10.857t-25.714 10.857l-94.857 94.286q-10.857 10.857-10.857 26t10.857 26l424 423.429q10.857 10.857 25.714 10.857t25.714-10.857l424-423.429q10.857-10.857 10.857-26t-10.857-26z" />
<glyph unicode="&#xe629;" glyph-name="chevron-down" d="M961.714 522.571l-424-423.429q-10.857-10.857-25.714-10.857t-25.714 10.857l-424 423.429q-10.857 10.857-10.857 26t10.857 26l94.857 94.286q10.857 10.857 25.714 10.857t25.714-10.857l303.429-303.429 303.429 303.429q10.857 10.857 25.714 10.857t25.714-10.857l94.857-94.286q10.857-10.857 10.857-26t-10.857-26z" />
<glyph unicode="&#xe62a;" glyph-name="password-change" d="M506.954 581.743q0 42.498-29.749 72.247t-72.247 29.749-72.247-29.749-29.749-72.247q0-22.312 10.093-44.092-21.781 10.093-44.092 10.093-42.498 0-72.247-29.749t-29.749-72.247 29.749-72.247 72.247-29.749 72.247 29.749 29.749 72.247q0 22.312-10.093 44.092 21.781-10.093 44.092-10.093 42.498 0 72.247 29.749t29.749 72.247zM959.028 207.759q0-9.031-26.030-35.061t-35.061-26.030q-4.781 0-15.14 8.5t-19.39 17.53-20.452 21.249-13.015 13.812l-50.998-50.998 116.87-116.87q14.874-14.874 14.874-36.123 0-22.312-20.718-43.030t-43.030-20.718q-21.249 0-36.123 14.874l-356.454 356.454q-93.496-69.591-193.898-69.591-86.59 0-141.041 54.45t-54.45 141.041q0 84.997 50.467 166.274t131.744 131.744 166.274 50.467q86.59 0 141.041-54.45t54.45-141.041q0-100.402-69.591-193.898l188.586-188.586 50.998 50.998q-1.593 1.593-13.812 13.015t-21.249 20.452-17.53 19.39-8.5 15.14q0 9.031 26.030 35.061t35.061 26.030q6.906 0 12.218-5.312 3.188-3.188 24.437-23.64t43.561-42.233 45.952-45.686 38.779-41.435 15.14-21.781z" />
<glyph unicode="&#xe62b;" glyph-name="list" d="M219.428 13.714q0-45.714-32-77.714t-77.714-32-77.714 32-32 77.714 32 77.714 77.714 32 77.714-32 32-77.714zM219.428 306.285q0-45.714-32-77.714t-77.714-32-77.714 32-32 77.714 32 77.714 77.714 32 77.714-32 32-77.714zM1023.999 68.571v-109.714q0-7.429-5.429-12.857t-12.857-5.429h-694.857q-7.429 0-12.857 5.429t-5.429 12.857v109.714q0 7.429 5.429 12.857t12.857 5.429h694.857q7.429 0 12.857-5.429t5.429-12.857zM219.428 598.856q0-45.714-32-77.714t-77.714-32-77.714 32-32 77.714 32 77.714 77.714 32 77.714-32 32-77.714zM1023.999 361.142v-109.714q0-7.429-5.429-12.857t-12.857-5.429h-694.857q-7.429 0-12.857 5.429t-5.429 12.857v109.714q0 7.429 5.429 12.857t12.857 5.429h694.857q7.429 0 12.857-5.429t5.429-12.857zM1023.999 653.714v-109.714q0-7.429-5.429-12.857t-12.857-5.429h-694.857q-7.429 0-12.857 5.429t-5.429 12.857v109.714q0 7.429 5.429 12.857t12.857 5.429h694.857q7.429 0 12.857-5.429t5.429-12.857z" />
<glyph unicode="&#xe62c;" glyph-name="operator-is-not-like" d="M1005.715 310.857q8 0 13.143-5.143t5.143-13.143v-36.571q0-8-5.143-13.143t-13.143-5.143h-987.429q-8 0-13.143 5.143t-5.143 13.143v36.571q0 8 5.143 13.143t13.143 5.143h987.429zM276.001 347.428q-16 20-29.143 45.714-27.429 55.429-27.429 107.429 0 103.429 76.571 176.571 76 72.571 224.571 72.571 28.571 0 95.429-10.857 37.714-6.857 101.143-27.429 5.714-21.714 12-67.429 8-70.286 8-104.571 0-10.286-2.857-25.714l-6.857-1.714-48 3.429-8 1.143q-28.571 85.143-58.857 117.143-50.286 52-120 52-65.143 0-104-33.714-38.286-33.143-38.286-83.429 0-41.714 37.714-80t159.429-73.714q39.429-11.429 98.857-37.714 33.143-16 54.286-29.714h-424.571zM565.715 201.143h234.857q4-22.286 4-52.571 0-63.429-23.429-121.143-13.143-31.429-40.571-59.429-21.143-20-62.286-46.286-45.714-27.429-87.429-37.714-45.714-12-116-12-65.143 0-111.429 13.143l-80 22.857q-32.571 9.143-41.143 16-4.571 4.571-4.571 12.571v7.429q0 61.714-1.143 89.143-0.571 17.143 0 38.857l1.143 21.143v25.143l58.286 1.143q8.571-19.429 17.143-40.571t12.857-32 7.143-15.429q20-32.571 45.714-53.714 24.571-20.571 60-32.571 33.714-12.571 75.429-12.571 36.571 0 79.429 15.429 44 14.857 69.714 49.143 26.857 34.857 26.857 73.714 0 48-46.286 89.714-19.429 16.571-78.286 40.571z" />
<glyph unicode="&#xe62d;" glyph-name="detail-additional" horiz-adv-x="585" d="M585.071 480q0-14.857-10.857-25.714l-256-256q-10.857-10.857-25.714-10.857t-25.714 10.857l-256 256q-10.857 10.857-10.857 25.714t10.857 25.714 25.714 10.857h512q14.857 0 25.714-10.857t10.857-25.714z" />
<glyph unicode="&#xe62e;" glyph-name="export-csv" d="M861.999 642q14-14 24.001-38.001t10.001-44v-576q0-19.999-14-33.999t-33.999-14h-672q-19.999 0-33.999 14t-14 33.999v800q0 19.999 14 33.999t33.999 14h448q19.999 0 44-10.001t38.001-24.001zM639.999 764.001v-187.999h187.999q-5 14.499-10.999 20.501l-156.499 156.499q-5.999 5.999-20.501 10.999zM831.999 0.001v512h-208q-19.999 0-33.999 14t-14 33.999v208h-383.999v-768h640.001zM319.999 432q0 7 4.501 11.501t11.501 4.501h352q7 0 11.501-4.501t4.501-11.501v-31.999q0-7-4.501-11.501t-11.501-4.501h-352q-7 0-11.501 4.501t-4.501 11.501v31.999zM688 320q7 0 11.501-4.501t4.501-11.501v-31.999q0-7-4.501-11.501t-11.501-4.501h-352q-7 0-11.501 4.501t-4.501 11.501v31.999q0 7 4.501 11.501t11.501 4.501h352zM688 192q7 0 11.501-4.501t4.501-11.501v-31.999q0-7-4.501-11.501t-11.501-4.501h-352q-7 0-11.501 4.501t-4.501 11.501v31.999q0 7 4.501 11.501t11.501 4.501h352z" />
<glyph unicode="&#xe62f;" glyph-name="detail-plus" d="M789.335 317.337v69.335q0 14.085-10.289 24.375t-24.375 10.289h-173.335v173.335q0 14.085-10.289 24.375t-24.375 10.289h-69.335q-14.085 0-24.375-10.289t-10.289-24.375v-173.335h-173.335q-14.085 0-24.375-10.289t-10.289-24.375v-69.335q0-14.085 10.289-24.375t24.375-10.289h173.335v-173.335q0-14.085 10.289-24.375t24.375-10.289h69.335q14.085 0 24.375 10.289t10.289 24.375v173.335h173.335q14.085 0 24.375 10.289t10.289 24.375zM928 612v-519.998q0-64.46-45.77-110.231t-110.231-45.77h-519.998q-64.46 0-110.231 45.77t-45.77 110.231v519.998q0 64.46 45.77 110.231t110.231 45.77h519.998q64.46 0 110.231-45.77t45.77-110.231z" />
<glyph unicode="&#xe630;" glyph-name="operator-is-blank" d="M512 621.714q-84.571 0-156-41.714t-113.143-113.143-41.714-156 41.714-156 113.143-113.143 156-41.714 156 41.714 113.143 113.143 41.714 156-41.714 156-113.143 113.143-156 41.714zM950.857 310.857q0-119.429-58.857-220.286t-159.714-159.714-220.286-58.857-220.286 58.857-159.714 159.714-58.857 220.286 58.857 220.286 159.714 159.714 220.286 58.857 220.286-58.857 159.714-159.714 58.857-220.286z" />
<glyph unicode="&#xe631;" glyph-name="operator-is-not-blank" d="M950.857 310.857q0-119.429-58.857-220.286t-159.714-159.714-220.286-58.857-220.286 58.857-159.714 159.714-58.857 220.286 58.857 220.286 159.714 159.714 220.286 58.857 220.286-58.857 159.714-159.714 58.857-220.286z" />
<glyph unicode="&#xe632;" glyph-name="detail-minus" d="M789.336 317.334v69.334q0 14.084-10.29 24.375t-24.375 10.29h-485.334q-14.084 0-24.375-10.29t-10.29-24.375v-69.334q0-14.084 10.29-24.375t24.375-10.29h485.334q14.084 0 24.375 10.29t10.29 24.375zM928 612v-519.999q0-64.459-45.771-110.23t-110.23-45.771h-519.999q-64.459 0-110.23 45.771t-45.771 110.23v519.999q0 64.459 45.771 110.23t110.23 45.771h519.999q64.459 0 110.23-45.771t45.771-110.23z" />
<glyph unicode="&#xe633;" glyph-name="sort-asc" horiz-adv-x="951" d="M648.581 627.972h88.499l-35.999 108.999-5.999 23.499q-1.001 8.001-1.001 10.001h-2l-1.5-10.001q0-0.499-1.75-9t-3.75-14.499zM421.083 111.976q0-5.999-5-12l-159.499-159.499q-5-4.501-11.5-4.501-5.999 0-11.5 4.501l-159.999 159.999q-7.499 8.001-3.5 17.5 3.999 10.001 15 10.001h95.999v687.994q0 7 4.501 11.5t11.5 4.501h95.999q7 0 11.5-4.501t4.501-11.5v-687.994h95.999q7 0 11.5-4.501t4.501-11.5zM839.080 52.478v-116.499h-291.998v45l184.499 264.498q5.999 9 10.5 13.501l5.5 4.501v1.5q-1.001 0-3.25-0.25t-3.75-0.25q-5.999-1.5-15-1.5h-115.999v-57.5h-59.999v114.499h283.498v-44.499l-184.499-264.997q-3.001-3.999-10.5-12.999l-5.5-5.5v-1.001l7 1.001q4.501 1.001 15 1.001h123.998v59.5h60.499zM883.581 500.973v-52.999h-143.999v52.999h37.499l-23.499 72h-121.499l-23.499-72h37.499v-52.999h-143.498v52.999h35l114.999 330.998h80.999l114.999-330.998h35z" />
<glyph unicode="&#xe634;" glyph-name="sort-desc" horiz-adv-x="951" d="M648.581 115.977h88.499l-35.999 108.999-5.999 23.499q-1.001 8.001-1.001 10.001h-2l-1.5-10.001q0-0.499-1.75-9t-3.75-14.499zM421.083 111.976q0-5.999-5-12l-159.499-159.499q-5-4.501-11.5-4.501-5.999 0-11.5 4.501l-159.999 159.999q-7.499 8.001-3.5 17.5 3.999 10.001 15 10.001h95.999v687.994q0 7 4.501 11.5t11.5 4.501h95.999q7 0 11.5-4.501t4.501-11.5v-687.994h95.999q7 0 11.5-4.501t4.501-11.5zM883.581-11.022v-52.999h-143.999v52.999h37.499l-23.499 72h-121.499l-23.499-72h37.499v-52.999h-143.498v52.999h35l114.999 330.998h80.999l114.999-330.998h35zM839.080 564.473v-116.499h-291.998v45l184.499 264.498q5.999 9 10.5 13.501l5.5 4.501v1.5q-1.001 0-3.25-0.25t-3.75-0.25q-5.999-1.5-15-1.5h-115.999v-57.5h-59.999v114.499h283.498v-44.499l-184.499-264.997q-3.001-3.999-10.5-12.999l-5.5-5v-1.5l7 1.5q4.501 0.499 15 0.499h123.998v59.5h60.499z" />
<glyph unicode="&#xe635;" glyph-name="export-pdf" d="M861.999 642q14-14 24.001-38.001t10.001-44v-576q0-19.999-14-33.999t-33.999-14h-672q-19.999 0-33.999 14t-14 33.999v800q0 19.999 14 33.999t33.999 14h448q19.999 0 44-10.001t38.001-24.001zM639.999 764.001v-187.999h187.999q-5 14.499-10.999 20.501l-156.499 156.499q-5.999 5.999-20.501 10.999zM831.999 0.001v512h-208q-19.999 0-33.999 14t-14 33.999v208h-383.999v-768h640.001zM574.999 296.501q16.499-12.999 42-28 29.5 3.5 58.499 3.5 73.5 0 88.501-24.5 8.001-10.999 1.001-26 0-0.499-0.499-1.001l-1.001-1.001v-0.499q-3.001-19-35.499-19-24.001 0-57.5 10.001t-65 26.5q-110.5-12-196-41.501-76.501-131-121-131-7.499 0-14 3.5l-12 5.999q-0.499 0.499-3.001 2.499-5 5-3.001 17.999 4.501 19.999 28 45.75t66.001 48.251q7 4.501 11.501-3.001 1.001-1.001 1.001-2 26 42.499 53.501 98.499 33.999 68 52.001 131-12 40.999-15.251 79.751t3.25 63.749q5.5 19.999 21 19.999h10.999q11.501 0 17.5-7.499 9-10.5 4.501-33.999-1.001-3.001-2-3.999 0.499-1.5 0.499-3.999v-15.001q-1.001-61.5-7-96 27.501-82 73.001-119zM286.999 91.001q26 12 68.5 79-25.501-19.999-43.75-42t-24.75-37zM485.999 551q-7.499-21-1.001-66.001 0.499 3.5 3.5 22.001 0 1.5 3.5 21.499 0.499 2 2 3.999-0.499 0.499-0.499 1.001t-0.25 0.749-0.25 0.749q-0.499 10.999-6.501 17.999 0-0.499-0.499-1.001v-1.001zM424 220.501q67.501 26.999 142 40.5-1.001 0.499-6.501 4.751t-8.001 6.75q-38.001 33.5-63.499 87.999-13.501-43.001-41.501-98.499-15.001-28-22.5-41.501zM746.999 228.501q-12 12-70 12 38.001-14 61.999-14 7 0 9 0.499 0 0.499-1.001 1.5z" />
<glyph unicode="&#xe636;" glyph-name="export-word" d="M861.999 642q14-14 24.001-38.001t10.001-44v-576q0-19.999-14-33.999t-33.999-14h-672q-19.999 0-33.999 14t-14 33.999v800q0 19.999 14 33.999t33.999 14h448q19.999 0 44-10.001t38.001-24.001zM639.999 764.001v-187.999h187.999q-5 14.499-10.999 20.501l-156.499 156.499q-5.999 5.999-20.501 10.999zM831.999 0.001v512h-208q-19.999 0-33.999 14t-14 33.999v208h-383.999v-768h640.001zM244.499 448.001v-53.501h35l82-330.5h79.499l64.001 242.501q3.5 10.001 5 23 1.001 8.001 1.001 12h2l1.5-12q0.499-1.5 1.75-10.001t2.751-12.999l64.001-242.501h79.499l82 330.5h35v53.501h-150.001v-53.501h45.001l-49.499-219q-2.499-10.001-3.5-23l-1.001-10.5h-2l-1.5 10.5q-0.499 2.499-2 10.5t-2.499 12.5l-72 272.501h-57.001l-72-272.501q-1.001-4.501-2.249-12.25t-1.75-10.75l-2-10.5h-2l-1.001 10.5q-1.001 12.999-3.5 23l-49.499 219h45.001v53.501h-150.001z" />
<glyph unicode="&#xe637;" glyph-name="export-excel" d="M861.999 642q14-14 24.001-38.001t10.001-44v-576q0-19.999-14-33.999t-33.999-14h-672q-19.999 0-33.999 14t-14 33.999v800q0 19.999 14 33.999t33.999 14h448q19.999 0 44-10.001t38.001-24.001zM639.999 764.001v-187.999h187.999q-5 14.499-10.999 20.501l-156.499 156.499q-5.999 5.999-20.501 10.999zM831.999 0.001v512h-208q-19.999 0-33.999 14t-14 33.999v208h-383.999v-768h640.001zM342.499 117v-52.999h140.499v52.999h-37.499l51.499 80.5q2.499 3.5 5 8.251t3.75 6.75 1.75 2h1.001q0.499-2 2.499-5 1.001-2 2.249-3.75t3.001-3.999 3.25-4.249l53.501-80.5h-38.001v-52.999h145.5v52.999h-33.999l-96 136.5 97.501 141.001h33.5v53.501h-139.501v-53.501h37l-51.499-79.499q-2-3.5-5-8.251t-4.501-6.75l-1.001-1.5h-1.001q-0.499 2-2.499 5-3.001 5.5-8.5 11.501l-52.999 79.499h38.001v53.501h-145v-53.501h33.999l94.5-136.001-96.999-141.5h-33.999z" />
<glyph unicode="&#xe638;" glyph-name="export-xml" d="M861.999 642q14-14 24.001-38.001t10.001-44v-576q0-19.999-14-33.999t-33.999-14h-672q-19.999 0-33.999 14t-14 33.999v800q0 19.999 14 33.999t33.999 14h448q19.999 0 44-10.001t38.001-24.001zM639.999 764.001v-187.999h187.999q-5 14.499-10.999 20.501l-156.499 156.499q-5.999 5.999-20.501 10.999zM831.999 0.001v512h-208q-19.999 0-33.999 14t-14 33.999v208h-383.999v-768h640.001zM368 448.001q3.999 5.5 10.5 6.251t12-3.25l25.501-19q5.5-3.999 6.251-10.5t-3.25-12l-91-121.499 91-121.499q3.999-5.5 3.25-12t-6.251-10.5l-25.501-19q-5.5-3.999-12-3.25t-10.5 6.251l-113.001 150.5q-7 9.499 0 19zM768.999 297.501q7-9.499 0-19l-113.001-150.5q-3.999-5.5-10.5-6.251t-12 3.25l-25.501 19q-5.5 3.999-6.251 10.5t3.25 12l91 121.499-91 121.499q-3.999 5.5-3.25 12t6.251 10.5l25.501 19q5.5 3.999 12 3.25t10.5-6.251zM459 67.001q-6.501 1.001-10.25 6.501t-2.751 12l68.999 415.499q1.001 6.501 6.501 10.25t12 2.751l31.5-5q6.501-1.001 10.25-6.501t2.751-12l-68.999-415.499q-1.001-6.501-6.501-10.25t-12-2.751z" />
<glyph unicode="&#xe639;" glyph-name="user-add" horiz-adv-x="1170" d="M415.476 316.191q-84.232 0-143.831 59.598t-59.598 143.831 59.598 143.831 143.831 59.598 143.831-59.598 59.598-143.831-59.598-143.831-143.831-59.598zM924.047 248.382h186.476q6.887 0 11.92-5.033t5.033-11.92v-101.714q0-6.887-5.033-11.92t-11.92-5.033h-186.476v-186.476q0-6.887-5.033-11.92t-11.92-5.033h-101.714q-6.887 0-11.92 5.033t-5.033 11.92v186.476h-186.476q-6.887 0-11.92 5.033t-5.033 11.92v101.714q0 6.887 5.033 11.92t11.92 5.033h186.476v186.476q0 6.887 5.033 11.92t11.92 5.033h101.714q6.887 0 11.92-5.033t5.033-11.92v-186.476zM534.143 129.715q0-27.547 20.131-47.679t47.679-20.131h135.619v-126.083q-36.024-26.488-90.589-26.488h-463.012q-64.101 0-102.774 36.554t-38.672 100.654q0 28.078 1.854 54.83t7.417 57.744 14.039 57.479 22.779 51.652 32.846 42.911 45.295 28.342 59.068 10.596q10.065 0 20.661-9.006 41.851-32.315 81.848-48.473t87.146-16.158 87.146 16.158 81.848 48.473q10.596 9.006 20.661 9.006 69.929 0 114.958-50.857h-118.137q-27.547 0-47.679-20.131t-20.131-47.679v-101.714z" />
<glyph unicode="&#xe63a;" glyph-name="user-delete" horiz-adv-x="1170" d="M417.86 316.191q-84.232 0-143.831 59.598t-59.598 143.831 59.598 143.831 143.831 59.598 143.831-59.598 59.598-143.831-59.598-143.831-143.831-59.598zM988.413 146.668l131.911-131.911q4.768-4.768 4.768-12.185 0-6.887-4.768-11.654l-72.047-72.047q-4.768-4.768-11.654-4.768-7.417 0-12.185 4.768l-131.911 131.911-131.911-131.911q-4.768-4.768-12.185-4.768-6.887 0-11.654 4.768l-72.047 72.047q-4.768 4.768-4.768 11.654 0 7.417 4.768 12.185l131.911 131.911-131.911 131.911q-4.768 4.768-4.768 12.185 0 6.887 4.768 11.654l72.047 72.047q4.768 4.768 11.654 4.768 7.417 0 12.185-4.768l131.911-131.911 131.911 131.911q4.768 4.768 12.185 4.768 6.887 0 11.654-4.768l72.047-72.047q4.768-4.768 4.768-11.654 0-7.417-4.768-12.185zM724.592 146.668l-95.887-95.887q-19.601-19.601-19.601-48.208 0-28.078 19.601-47.679l43.971-43.971q-11.125-1.589-23.31-1.589h-463.012q-64.101 0-102.774 36.554t-38.672 100.654q0 28.078 1.854 54.83t7.417 57.744 14.039 57.479 22.779 51.652 32.846 42.911 45.295 28.342 59.068 10.596q10.065 0 20.661-9.006 81.583-64.631 168.994-64.631t168.994 64.631q10.596 9.006 20.661 9.006 14.833 0 30.196-3.179-14.833-14.304-21.721-26.488t-6.887-29.667q0-28.607 19.601-48.208z" />
<glyph unicode="&#xe63b;" glyph-name="old-copy" d="M841.141 7.034v466.285q0 5.573-4.073 9.642t-9.642 4.073h-466.285q-5.573 0-9.642-4.073t-4.073-9.642v-466.285q0-5.573 4.073-9.642t9.642-4.073h466.285q5.573 0 9.642 4.073t4.073 9.642zM896 473.318v-466.285q0-28.286-20.142-48.427t-48.427-20.142h-466.285q-28.286 0-48.427 20.142t-20.142 48.427v466.285q0 28.286 20.142 48.427t48.427 20.142h466.285q28.286 0 48.427-20.142t20.142-48.427zM731.427 637.889v-68.573h-54.857v68.573q0 5.573-4.073 9.642t-9.642 4.073h-466.285q-5.573 0-9.642-4.073t-4.073-9.642v-466.285q0-5.573 4.073-9.642t9.642-4.073h68.573v-54.857h-68.573q-28.286 0-48.427 20.142t-20.142 48.427v466.285q0 28.286 20.142 48.427t48.427 20.142h466.285q28.286 0 48.427-20.142t20.142-48.427z" />
<glyph unicode="&#xe900;" glyph-name="today" d="M298 470h214v-214h-214v214zM810 86v468h-596v-468h596zM810 768q34 0 60-26t26-60v-596q0-34-26-60t-60-26h-596q-36 0-61 26t-25 60v596q0 34 25 60t61 26h42v86h86v-86h340v86h86v-86h42z" />
<glyph unicode="&#xe901;" glyph-name="file-doc" horiz-adv-x="1456" d="M227.257 702.294h1001.486c98.511 0 177.278-79.155 177.278-176.807v-412.853c0-97.668-79.371-176.803-177.278-176.803h-1001.486c-98.509 0-177.278 79.155-177.278 176.803v412.853c0 97.668 79.371 176.807 177.278 176.807v0zM226.853 525.417v-412.709h176.589c65.284 0 118.204 52.269 118.204 118.265v176.177c0 65.315-52.701 118.265-118.204 118.265l-176.589 0.004zM285.811 466.458v-294.795h117.976c32.527 0 58.898 26.161 58.898 58.949v176.898c0 32.556-26.1 58.946-58.898 58.946l-117.976 0.004zM698.809 525.417c-65.284 0-118.204-52.269-118.204-118.265v-176.177c0-65.315 52.701-118.265 118.204-118.265h58.385c65.284 0 118.204 52.269 118.204 118.265v176.177c0 65.315-52.701 118.265-118.204 118.265h-58.385zM698.457 466.458c-32.527 0-58.898-26.161-58.898-58.946v-176.898c0-32.556 26.1-58.949 58.898-58.949h59.083c32.527 0 58.898 26.161 58.898 58.949v176.898c0 32.556-26.1 58.946-58.898 58.946h-59.083zM1229.145 230.627l-58.959-0.010c0-32.785-26.368-58.949-58.898-58.949h-59.083c-32.798 0-58.898 26.389-58.898 58.949v176.898c0 32.785 26.368 58.946 58.898 58.946h59.083c32.798 0 58.898-26.389 58.898-58.959h58.959c-0.187 65.156-52.82 117.919-118.204 117.919h-58.385c-65.284 0-118.204-52.269-118.204-118.265v-176.177c0-65.315 52.701-118.265 118.204-118.265h58.385c65.168 0 118.017 52.087 118.204 117.919v-0.004z" />
<glyph unicode="&#xe902;" glyph-name="file-pdf" horiz-adv-x="1456" d="M227.697 701.649h1000.606c98.427 0 177.124-79.087 177.124-176.65v-412.491c0-97.58-79.302-176.65-177.124-176.65h-1000.606c-98.423 0-177.124 79.087-177.124 176.65v412.491c0 97.58 79.302 176.65 177.124 176.65v0zM993.080 348.206v117.815h235.624v58.907h-294.536v-412.348h58.907v176.721h176.721v58.907l-176.721-0.004zM227.295 407.114v-294.536h58.907v176.721h117.526c65.224 0 118.1 52.292 118.1 117.815 0 65.067-52.656 117.815-118.1 117.815h-176.434v-117.815zM286.197 466.020v-117.815h117.872c32.497 0 58.847 26.146 58.847 58.907 0 32.531-26.075 58.907-58.847 58.907h-117.872zM580.736 524.925v-412.348h176.434c65.224 0 118.1 52.224 118.1 118.161v176.023c0 65.259-52.656 118.161-118.1 118.161l-176.434 0.004zM639.636 466.020v-294.536h117.876c32.497 0 58.847 26.136 58.847 58.895v176.745c0 32.527-26.075 58.895-58.847 58.895l-117.876 0.004z" />
<glyph unicode="&#xe903;" glyph-name="file-xls" horiz-adv-x="1456" d="M227.707 701.631c-97.82 0-177.122-79.066-177.122-176.645v-412.484c0-97.559 78.699-176.644 177.122-176.644h1000.587c97.82 0 177.122 79.066 177.122 176.644v412.484c0 97.559-78.695 176.645-177.122 176.645h-1000.587zM345.116 318.743l-117.812 206.168h58.906l88.357-154.627 88.361 154.627h58.906l-117.812-206.168 117.812-206.168h-58.906l-88.361 154.627-88.361-154.627h-58.906l117.815 206.168zM875.263 171.479v-58.906h-294.527v412.34h58.906v-353.433h235.623zM1052.267 524.911h58.331c65.442 0 118.097-52.745 118.097-117.812h-58.906c0 32.211-26.345 58.906-58.846 58.906h-59.030c-32.769 0-58.846-26.37-58.846-58.906 0-32.758 26.621-58.906 59.456-58.906h58.353c65.519 0 117.812-52.745 117.812-117.812 0-65.519-52.876-117.812-118.097-117.812h-58.331c-65.442 0-118.097 52.771-118.097 117.876v0.34h58.906v-0.666c0-31.764 26.345-58.642 58.846-58.642h59.030c32.769 0 58.846 26.37 58.846 58.906 0 32.758-26.621 58.906-59.456 58.906h-58.353c-65.519 0-117.812 52.745-117.812 117.812 0 65.52 52.876 117.812 118.097 117.812v0z" />
<glyph unicode="&#xe904;" glyph-name="file-xml" horiz-adv-x="1456" d="M227.699 701.642c-97.82 0-177.123-79.067-177.123-176.648v-412.488c0-97.558 78.701-176.648 177.123-176.648h1000.601c97.82 0 177.123 79.067 177.123 176.648v412.488c0 97.558-78.698 176.648-177.123 176.648h-1000.601zM345.109 318.75l-117.814 206.17h58.907l88.357-154.629 88.36 154.629h58.907l-117.814-206.17 117.814-206.17h-58.907l-88.36 154.629-88.36-154.629h-58.907l117.817 206.17zM727.999 348.202l88.36 176.72h58.907v-412.345h-58.907v294.533l-58.907-117.814h-58.907l-58.907 117.814v-294.533h-58.907v412.345h58.907l88.357-176.72zM1228.7 171.484v-58.907h-294.533v412.345h58.907v-353.437h235.627z" />
<glyph unicode="&#xe905;" glyph-name="file-csv" horiz-adv-x="1460" d="M228.265 703.981h1003.471c98.705 0 177.631-79.313 177.631-177.154v-413.673c0-97.86-79.527-177.154-177.631-177.154h-1003.471c-98.705 0-177.631 79.313-177.631 177.154v413.673c0 97.86 79.527 177.154 177.631 177.154v0zM1084.451 216.609l-88.611 310.146h-59.075l118.15-413.529h59.075l118.15 413.529h-59.075l-88.611-310.146zM700.751 526.753v0c-65.411 0-118.438-52.443-118.438-118.15 0-65.252 52.443-118.15 118.15-118.15h58.521c32.934 0 59.63-26.222 59.63-59.075 0-32.627-26.152-59.075-59.014-59.075h-59.2c-32.592 0-59.014 26.955-59.014 58.811v0.667h-59.075v-0.341c0-65.289 52.808-118.216 118.438-118.216h58.499c65.411 0 118.438 52.443 118.438 118.15 0 65.252-52.443 118.15-118.15 118.15h-58.521c-32.934 0-59.63 26.222-59.63 59.075 0 32.627 26.152 59.075 59.014 59.075h59.2c32.592 0 59.014-26.773 59.014-59.075h59.075c0 65.252-52.808 118.15-118.438 118.15h-58.499zM523.235 231.38l-59.075-0.011c0-32.851-26.422-59.064-59.014-59.064h-59.2c-32.862 0-59.014 26.443-59.014 59.064v177.248c0 32.851 26.422 59.064 59.014 59.064h59.2c32.862 0 59.014-26.443 59.014-59.075h59.075c-0.187 65.286-52.926 118.15-118.438 118.15h-58.499c-65.411 0-118.438-52.374-118.438-118.5v-176.527c0-65.446 52.808-118.5 118.438-118.5h58.499c65.298 0 118.252 52.19 118.438 118.15v-0.002z" />
<glyph unicode="&#xe906;" glyph-name="copy" d="M829.791 706.462h-528.288c-9.089 0-17.952-7.392-17.952-16.608v-82.687h463.457v-49.697l1.056-513.089h81.727c9.12 0 16.512 7.392 16.512 16.512v628.961c0 9.216-7.392 16.608-16.512 16.608zM177.697 547.613h509.791v-609.151h-509.791v609.151z" />
<glyph unicode="&#xe907;" glyph-name="filter-alt" d="M512 896c-282.77 0-512-71.634-512-160v-96l384-384v-320c0-35.346 57.306-64 128-64 70.692 0 128 28.654 128 64v320l384 384v96c0 88.366-229.23 160-512 160zM94.384 757.176c23.944 13.658 57.582 26.62 97.278 37.488 87.944 24.076 201.708 37.336 320.338 37.336 118.628 0 232.394-13.26 320.338-37.336 39.696-10.868 73.334-23.83 97.28-37.488 15.792-9.006 24.324-16.624 28.296-21.176-3.972-4.552-12.506-12.168-28.296-21.176-23.946-13.658-57.584-26.62-97.28-37.488-87.942-24.076-201.708-37.336-320.338-37.336s-232.394 13.26-320.338 37.336c-39.696 10.868-73.334 23.83-97.278 37.488-15.792 9.008-24.324 16.624-28.298 21.176 3.974 4.552 12.506 12.168 28.298 21.176z" />
<glyph unicode="&#xe908;" glyph-name="home" d="M1024 305.556l-512 397.426-512-397.428v162.038l512 397.426 512-397.428zM896 320v-384h-256v256h-256v-256h-256v384l384 288z" />
<glyph unicode="&#xe909;" glyph-name="upload" horiz-adv-x="951" d="M731.429 54.857c0 20-16.571 36.571-36.571 36.571s-36.571-16.571-36.571-36.571 16.571-36.571 36.571-36.571 36.571 16.571 36.571 36.571zM877.714 54.857c0 20-16.571 36.571-36.571 36.571s-36.571-16.571-36.571-36.571 16.571-36.571 36.571-36.571 36.571 16.571 36.571 36.571zM950.857 182.857v-182.857c0-30.286-24.571-54.857-54.857-54.857h-841.143c-30.286 0-54.857 24.571-54.857 54.857v182.857c0 30.286 24.571 54.857 54.857 54.857h244c15.429-42.286 56-73.143 103.429-73.143h146.286c47.429 0 88 30.857 103.429 73.143h244c30.286 0 54.857-24.571 54.857-54.857zM765.143 553.143c-5.714-13.714-18.857-22.857-33.714-22.857h-146.286v-256c0-20-16.571-36.571-36.571-36.571h-146.286c-20 0-36.571 16.571-36.571 36.571v256h-146.286c-14.857 0-28 9.143-33.714 22.857-5.714 13.143-2.857 29.143 8 39.429l256 256c6.857 7.429 16.571 10.857 25.714 10.857s18.857-3.429 25.714-10.857l256-256c10.857-10.286 13.714-26.286 8-39.429z" />
<glyph unicode="&#xe90a;" glyph-name="file" horiz-adv-x="878" d="M585.143 603.429v269.714c8-5.143 14.857-10.286 20.571-16l233.143-233.143c5.714-5.714 10.857-12.571 16-20.571h-269.714zM512 585.143c0-30.286 24.571-54.857 54.857-54.857h310.857v-603.429c0-30.286-24.571-54.857-54.857-54.857h-768c-30.286 0-54.857 24.571-54.857 54.857v914.286c0 30.286 24.571 54.857 54.857 54.857h457.143v-310.857z" />
<glyph unicode="&#xe90b;" glyph-name="folder-open-o" horiz-adv-x="1091" d="M1017.714 364c0 16-17.714 20-30.286 20h-621.714c-30.286 0-70.286-18.857-89.714-42.286l-168-207.429c-5.143-6.857-10.286-14.286-10.286-22.857 0-16 17.714-20 30.286-20h621.714c30.286 0 70.286 18.857 89.714 42.857l168 207.429c5.143 6.286 10.286 13.714 10.286 22.286zM365.714 457.143h438.857v91.429c0 30.286-24.571 54.857-54.857 54.857h-329.143c-30.286 0-54.857 24.571-54.857 54.857v36.571c0 30.286-24.571 54.857-54.857 54.857h-182.857c-30.286 0-54.857-24.571-54.857-54.857v-487.429l146.286 180c33.143 40.571 94.286 69.714 146.286 69.714zM1090.857 364c0-25.143-10.857-49.143-26.286-68.571l-168.571-207.429c-32.571-40-94.857-69.714-146.286-69.714h-621.714c-70.286 0-128 57.714-128 128v548.571c0 70.286 57.714 128 128 128h182.857c70.286 0 128-57.714 128-128v-18.286h310.857c70.286 0 128-57.714 128-128v-91.429h109.714c38.857 0 77.714-17.714 94.857-54.286 5.714-12 8.571-25.143 8.571-38.857z" />
<glyph unicode="&#xe90c;" glyph-name="folder-open" horiz-adv-x="1074" d="M1073.714 352c0-13.714-8.571-27.429-17.714-37.714l-192-226.286c-33.143-38.857-100.571-69.714-150.857-69.714h-621.714c-20.571 0-49.714 6.286-49.714 32 0 13.714 8.571 27.429 17.714 37.714l192 226.286c33.143 38.857 100.571 69.714 150.857 69.714h621.714c20.571 0 49.714-6.286 49.714-32zM877.714 548.571v-91.429h-475.429c-71.429 0-160-40.571-206.286-95.429l-195.429-229.714c0 4.571-0.571 9.714-0.571 14.286v548.571c0 70.286 57.714 128 128 128h182.857c70.286 0 128-57.714 128-128v-18.286h310.857c70.286 0 128-57.714 128-128z" />
<glyph unicode="&#xe90d;" glyph-name="exclamation" d="M585.143 110.286v108.571c0 10.286-8 18.857-18.286 18.857h-109.714c-10.286 0-18.286-8.571-18.286-18.857v-108.571c0-10.286 8-18.857 18.286-18.857h109.714c10.286 0 18.286 8.571 18.286 18.857zM584 324l10.286 262.286c0 3.429-1.714 8-5.714 10.857-3.429 2.857-8.571 6.286-13.714 6.286h-125.714c-5.143 0-10.286-3.429-13.714-6.286-4-2.857-5.714-8.571-5.714-12l9.714-261.143c0-7.429 8.571-13.143 19.429-13.143h105.714c10.286 0 18.857 5.714 19.429 13.143zM576 857.714l438.857-804.571c12.571-22.286 12-49.714-1.143-72s-37.143-36-62.857-36h-877.714c-25.714 0-49.714 13.714-62.857 36s-13.714 49.714-1.143 72l438.857 804.571c12.571 23.429 37.143 38.286 64 38.286s51.429-14.857 64-38.286z" />
<glyph unicode="&#xe90e;" glyph-name="custom-filter" d="M992.469 896h-990.868c-2.176 0-0.363-376.235-1.195-378.24s-0.363-4.352 1.195-5.867l373.226-371.221v-263.275c0-3.008 2.411-5.397 5.376-5.397h233.664c2.965 0 5.376 2.389 5.376 5.397v263.232l373.227 371.264c1.557 1.536 2.027 3.861 1.195 5.867-0.853 2.027-1.195 378.24-1.195 378.24z" />
<glyph unicode="&#xe90f;" glyph-name="selection-filter" d="M802.406 496.742c-26.317 0-51.507 5.12-75.469 15.36-24.064 10.24-44.749 24.064-62.157 41.472s-31.232 38.195-41.472 62.157c-10.24 24.064-15.36 49.254-15.36 75.469 0 21.094 3.277 41.574 9.728 61.338 6.554 19.763 15.77 37.683 27.853 53.555 11.981 15.974 26.010 29.901 41.984 41.984 15.974 11.981 33.792 21.299 53.555 27.853s40.243 9.728 61.338 9.728c26.317 0 51.507-5.12 75.469-15.36 24.064-10.24 44.749-24.064 62.157-41.472s31.232-38.195 41.472-62.157c10.24-24.064 15.36-49.254 15.36-75.469s-5.12-51.507-15.36-75.469c-10.24-24.064-24.064-44.749-41.472-62.157s-38.195-31.232-62.157-41.472c-23.962-10.24-49.152-15.36-75.469-15.36zM778.445 587.469c1.536-1.843 3.584-2.662 5.939-2.662s4.301 0.922 5.939 2.662l126.362 126.362c1.536 1.536 2.355 3.584 2.355 5.939s-0.819 4.403-2.355 6.246l-46.899 46.899c-1.536 1.536-3.584 2.355-5.939 2.355s-4.301-0.819-5.939-2.355l-73.83-73.83-28.365 28.672c-1.536 1.536-3.584 2.355-5.939 2.355s-4.403-0.819-6.246-2.355l-46.899-46.899c-1.536-1.843-2.355-3.789-2.355-6.042s0.819-4.301 2.355-6.042l81.818-81.306zM60.826 611.738c-9.216 0-17.101 3.277-23.757 9.933s-9.933 14.541-9.933 23.757v45.875h495.514c0-26.726 3.891-53.248 11.776-79.565h-473.6zM296.755-117.76v337.101l-235.93 370.79h481.075c14.336-37.069 35.635-69.53 63.693-97.382l-173.978-273.408v-202.24l-134.861-134.861z" />
<glyph unicode="&#xf081;" glyph-name="twitter-square" horiz-adv-x="878" d="M731.429 547.429c-21.714-9.714-44.571-16-69.143-19.429 25.143 14.857 44 38.857 53.143 66.857-23.429-13.714-49.143-24-76.571-29.143-21.714 23.429-53.143 37.714-87.429 37.714-66.286 0-120-53.714-120-120 0-9.143 0.571-18.857 2.857-27.429-100 5.143-188.571 52.571-248 125.714-10.286-17.714-16.571-38.857-16.571-60.571 0-41.714 19.429-78.286 52-100-20 0.571-38.857 6.286-57.143 14.857v-1.143c0-58.286 44-106.857 98.857-117.714-10.286-2.857-18.286-4.571-29.143-4.571-7.429 0-14.857 1.143-22.286 2.286 15.429-47.429 59.429-82.286 112-83.429-41.143-32-92.571-51.429-149.143-51.429-9.714 0-19.429 0.571-28.571 1.714 53.143-33.714 116-53.714 184-53.714 220.571 0 341.714 182.857 341.714 341.714 0 5.143 0 10.286-0.571 15.429 23.429 16.571 44 37.714 60 62.286zM877.714 658.286v-548.571c0-90.857-73.714-164.571-164.571-164.571h-548.571c-90.857 0-164.571 73.714-164.571 164.571v548.571c0 90.857 73.714 164.571 164.571 164.571h548.571c90.857 0 164.571-73.714 164.571-164.571z" />
<glyph unicode="&#xf082;" glyph-name="facebook-square" horiz-adv-x="878" d="M713.143 822.857c90.857 0 164.571-73.714 164.571-164.571v-548.571c0-90.857-73.714-164.571-164.571-164.571h-107.429v340h113.714l17.143 132.571h-130.857v84.571c0 38.286 10.286 64 65.714 64l69.714 0.571v118.286c-12 1.714-53.714 5.143-101.714 5.143-101.143 0-170.857-61.714-170.857-174.857v-97.714h-114.286v-132.571h114.286v-340h-304c-90.857 0-164.571 73.714-164.571 164.571v548.571c0 90.857 73.714 164.571 164.571 164.571h548.571z" />
<glyph unicode="&#xf099;" glyph-name="twitter" horiz-adv-x="951" d="M925.714 662.857c-25.143-36.571-56.571-69.143-92.571-95.429 0.571-8 0.571-16 0.571-24 0-244-185.714-525.143-525.143-525.143-104.571 0-201.714 30.286-283.429 82.857 14.857-1.714 29.143-2.286 44.571-2.286 86.286 0 165.714 29.143 229.143 78.857-81.143 1.714-149.143 54.857-172.571 128 11.429-1.714 22.857-2.857 34.857-2.857 16.571 0 33.143 2.286 48.571 6.286-84.571 17.143-148 91.429-148 181.143v2.286c24.571-13.714 53.143-22.286 83.429-23.429-49.714 33.143-82.286 89.714-82.286 153.714 0 34.286 9.143 65.714 25.143 93.143 90.857-112 227.429-185.143 380.571-193.143-2.857 13.714-4.571 28-4.571 42.286 0 101.714 82.286 184.571 184.571 184.571 53.143 0 101.143-22.286 134.857-58.286 41.714 8 81.714 23.429 117.143 44.571-13.714-42.857-42.857-78.857-81.143-101.714 37.143 4 73.143 14.286 106.286 28.571z" />
<glyph unicode="&#xf09a;" glyph-name="facebook, facebook-f" horiz-adv-x="602" d="M548 889.143v-150.857h-89.714c-70.286 0-83.429-33.714-83.429-82.286v-108h167.429l-22.286-169.143h-145.143v-433.714h-174.857v433.714h-145.714v169.143h145.714v124.571c0 144.571 88.571 223.429 217.714 223.429 61.714 0 114.857-4.571 130.286-6.857z" />
<glyph unicode="&#xf0d5;" glyph-name="google-plus" horiz-adv-x="1317" d="M821.143 374.286c0-239.429-160.571-409.143-402.286-409.143-231.429 0-418.857 187.429-418.857 418.857s187.429 418.857 418.857 418.857c113.143 0 207.429-41.143 280.571-109.714l-113.714-109.143c-30.857 29.714-85.143 64.571-166.857 64.571-142.857 0-259.429-118.286-259.429-264.571s116.571-264.571 259.429-264.571c165.714 0 228 119.429 237.714 180.571h-237.714v144h395.429c4-21.143 6.857-42.286 6.857-69.714zM1316.571 444v-120h-119.429v-119.429h-120v119.429h-119.429v120h119.429v119.429h120v-119.429h119.429z" />
<glyph unicode="&#xf166;" glyph-name="youtube-square" horiz-adv-x="878" d="M525.143 151.429v89.714c0 18.857-5.714 28.571-16.571 28.571-6.286 0-12.571-2.857-18.857-9.143v-128c6.286-6.286 12.571-9.143 18.857-9.143 10.857 0 16.571 9.143 16.571 28zM630.286 221.143h37.714v19.429c0 19.429-6.286 29.143-18.857 29.143s-18.857-9.714-18.857-29.143v-19.429zM304 373.143v-40h-45.714v-241.714h-42.286v241.714h-44.571v40h132.571zM418.857 301.143v-209.714h-38.286v22.857c-14.857-17.143-29.143-25.714-43.429-25.714-12 0-20.571 5.143-24 16-2.286 6.286-3.429 16-3.429 30.857v165.714h37.714v-154.286c0-8.571 0-13.714 0.571-14.857 0.571-5.714 3.429-8.571 8.571-8.571 8 0 15.429 5.714 24 17.714v160h38.286zM562.857 237.714v-83.429c0-18.857-1.143-33.143-4-41.714-4.571-16-14.857-24-30.286-24-13.143 0-26.286 8-38.857 23.429v-20.571h-38.286v281.714h38.286v-92c12 14.857 25.143 22.857 38.857 22.857 15.429 0 25.714-8 30.286-24 2.857-8.571 4-22.286 4-42.286zM706.286 164v-5.143c0-12.571-0.571-20.571-1.143-24.571-1.143-8.571-4-16-8.571-22.857-10.286-15.429-26.286-22.857-45.714-22.857-20 0-35.429 7.429-46.286 21.714-8 10.286-12 26.857-12 49.143v73.714c0 22.286 3.429 38.286 11.429 49.143 10.857 14.286 26.286 21.714 45.714 21.714 18.857 0 34.286-7.429 44.571-21.714 8-10.857 12-26.857 12-49.143v-43.429h-76v-37.143c0-19.429 6.286-29.143 19.429-29.143 9.143 0 14.857 5.143 17.143 14.857 0 2.286 0.571 10.857 0.571 25.714h38.857zM448.571 634.857v-89.143c0-19.429-6.286-29.143-18.286-29.143-12.571 0-18.286 9.714-18.286 29.143v89.143c0 19.429 5.714 29.714 18.286 29.714 12 0 18.286-10.286 18.286-29.714zM753.143 227.429v0c0 49.143 0 101.143-10.857 148.571-8 33.714-35.429 58.286-68 61.714-77.714 8.571-156.571 8.571-235.429 8.571-78.286 0-157.143 0-234.857-8.571-33.143-3.429-60.571-28-68-61.714-10.857-47.429-11.429-99.429-11.429-148.571v0c0-48.571 0-100.571 11.429-148.571 7.429-33.143 34.857-57.714 67.429-61.714 78.286-8.571 157.143-8.571 235.429-8.571s157.143 0 235.429 8.571c32.571 4 60 28.571 67.429 61.714 11.429 48 11.429 100 11.429 148.571zM321.714 599.429l51.429 169.143h-42.857l-29.143-111.429-30.286 111.429h-44.571c8.571-26.286 18.286-52.571 26.857-78.857 13.714-40 22.286-69.714 26.286-90.286v-114.857h42.286v114.857zM486.857 553.143v74.286c0 22.286-4 38.857-12 49.714-10.857 14.286-25.714 21.714-44.571 21.714-19.429 0-34.286-7.429-44.571-21.714-8-10.857-12-27.429-12-49.714v-74.286c0-22.286 4-38.857 12-49.714 10.286-14.286 25.143-21.714 44.571-21.714 18.857 0 33.714 7.429 44.571 21.714 8 10.286 12 27.429 12 49.714zM590.286 484.571h38.286v211.429h-38.286v-161.714c-8.571-12-16.571-17.714-24-17.714-5.143 0-8.571 2.857-9.143 9.143-0.571 1.143-0.571 5.714-0.571 14.857v155.429h-38.286v-167.429c0-14.857 1.143-24.571 3.429-31.429 4-10.286 12.571-15.429 24.571-15.429 14.286 0 28.571 8.571 44 25.714v-22.857zM877.714 658.286v-548.571c0-90.857-73.714-164.571-164.571-164.571h-548.571c-90.857 0-164.571 73.714-164.571 164.571v548.571c0 90.857 73.714 164.571 164.571 164.571h548.571c90.857 0 164.571-73.714 164.571-164.571z" />
<glyph unicode="&#xf167;" glyph-name="youtube" horiz-adv-x="878" d="M554.857 185.143v-120.571c0-25.714-7.429-38.286-22.286-38.286-8.571 0-17.143 4-25.714 12.571v172c8.571 8.571 17.143 12.571 25.714 12.571 14.857 0 22.286-13.143 22.286-38.286zM748 184.571v-26.286h-51.429v26.286c0 25.714 8.571 38.857 25.714 38.857s25.714-13.143 25.714-38.857zM196 309.143h61.143v53.714h-178.286v-53.714h60v-325.143h57.143v325.143zM360.571-16h50.857v282.286h-50.857v-216c-11.429-16-22.286-24-32.571-24-6.857 0-10.857 4-12 12-0.571 1.714-0.571 8-0.571 20v208h-50.857v-223.429c0-20 1.714-33.143 4.571-41.714 4.571-14.286 16.571-21.143 33.143-21.143 18.286 0 37.714 11.429 58.286 34.857v-30.857zM605.714 68.571v112.571c0 26.286-1.143 45.143-5.143 56.571-6.286 21.143-20.571 32-40.571 32-18.857 0-36.571-10.286-53.143-30.857v124h-50.857v-378.857h50.857v27.429c17.143-21.143 34.857-31.429 53.143-31.429 20 0 34.286 10.857 40.571 31.429 4 12 5.143 30.857 5.143 57.143zM798.857 74.286v7.429h-52c0-20.571-0.571-32-1.143-34.857-2.857-13.714-10.286-20.571-22.857-20.571-17.714 0-26.286 13.143-26.286 39.429v49.714h102.286v58.857c0 30.286-5.143 52-15.429 66.286-14.857 19.429-34.857 29.143-60.571 29.143-26.286 0-46.286-9.714-61.143-29.143-10.857-14.286-16-36-16-66.286v-98.857c0-30.286 5.714-52.571 16.571-66.286 14.857-19.429 34.857-29.143 61.714-29.143s48 10.286 61.714 30.286c6.286 9.143 10.857 19.429 12 30.857 1.143 5.143 1.143 16.571 1.143 33.143zM451.429 596v120c0 26.286-7.429 39.429-24.571 39.429-16.571 0-24.571-13.143-24.571-39.429v-120c0-26.286 8-40 24.571-40 17.143 0 24.571 13.714 24.571 40zM862.286 166.857c0-65.714-0.571-136-14.857-200-10.857-45.143-47.429-78.286-91.429-82.857-105.143-12-211.429-12-317.143-12s-212 0-317.143 12c-44 4.571-81.143 37.714-91.429 82.857-14.857 64-14.857 134.286-14.857 200v0c0 66.286 0.571 136 14.857 200 10.857 45.143 47.429 78.286 92 83.429 104.571 11.429 210.857 11.429 316.571 11.429s212 0 317.143-11.429c44-5.143 81.143-38.286 91.429-83.429 14.857-64 14.857-133.714 14.857-200zM292 896h58.286l-69.143-228v-154.857h-57.143v154.857c-5.143 28-16.571 68-34.857 121.143-12.571 35.429-25.143 71.429-37.143 106.857h60.571l40.571-150.286zM503.429 705.714v-100c0-30.286-5.143-53.143-16-67.429-14.286-19.429-34.286-29.143-60.571-29.143-25.714 0-45.714 9.714-60 29.143-10.857 14.857-16 37.143-16 67.429v100c0 30.286 5.143 52.571 16 66.857 14.286 19.429 34.286 29.143 60 29.143 26.286 0 46.286-9.714 60.571-29.143 10.857-14.286 16-36.571 16-66.857zM694.857 798.286v-285.143h-52v31.429c-20.571-24-40-35.429-58.857-35.429-16.571 0-28.571 6.857-33.714 21.143-2.857 8.571-4.571 22.286-4.571 42.857v225.143h52v-209.714c0-12 0-18.857 0.571-20 1.143-8 5.143-12.571 12-12.571 10.286 0 21.143 8 32.571 24.571v217.714h52z" />
<glyph unicode="&#xf17a;" glyph-name="windows" horiz-adv-x="951" d="M389.714 321.143v-372l-389.714 53.714v318.286h389.714zM389.714 745.714v-376.571h-389.714v322.857zM950.857 321.143v-449.143l-518.286 71.429v377.714h518.286zM950.857 822.857v-453.714h-518.286v382.286z" />
</font>
</defs>
</svg>
